x Hemos lanzado la versión beta de MCAnime.net (v2.0 Kronos) para TODOS los usuarios. ¡Que esperas para participar!
Ultimas Actividades del Foro
Loading...
Loading...
Dashboard
| Registrarse

School Rumble/Ichi Gakki + Extra Class/Dvd rip/Jisedai/235mb

[Cerrar]
[Cerrar]

Ahora en MCAnime.net puedes perzonalizar las publicaciones de la portada a tu gusto.
Para poder perzonalizar tus publicaciones debe estar registrado y identificado.

Rating:
  • Rating: 8.62/10
Subido por: Betraya - [ Ir al Tema ]
School Rumble



Sinopsis

Tenma Tsukamoto es una estudiante que, como tantas otras, está perdidamente enamorada. El afortunado es Ooji Karasuma, un muchacho inexpresivo e indiferente a todo, por lo que se verá obligada a enamorarle por todos los medios. Lo que Tenma ignora es que todo un “Rey del Barrio”, Kenji Harima, anda detrás de ella y, pese a su fuerza y valor, es incapaz de mostrarle sus sentimientos. Las amigas de Tenma son una luchadora, una millonaria y una mujer muy misteriosa. Su hermana menor, Yakumo Tsukamoto, también será relevante. Los demás personajes son capaces de hacer cualquier cosa por amor... o por lo que haga falta.

Info


    *Nombre(s) de la serie: School Rumble Ichi Gakki
    *Categoria(s): Comedia Romantica, Escolar . Recuentos de la vida
    *Capitulos: 26 + 2 Ivas
    *Fansub(s) o Idioma(s): Español / Jisedai
    *Peso aproximado de los capitulos: 235mb
    *Resolución: 640x480
    *Fuente: (DVDRIP
    *Contenedor/Codec Video/Codec Audio: AVI / MPEG-4 Visual / MPEG Audio
    *Contraseña: no tiene
    *Anotaciones del Uploader: Buena comedia romantica, se necesita paciencia con los primeros caps, despues es epic ;w;


Miniatura

Spoiler:


MediaInfo

Spoiler:

General
Complete name                            : D:Anime StockSchool Rumble[JnF]_School_Rumble_-_01_[DVDrip][575DA268].avi
Format                                   : AVI
Format/Info                              : Audio Video Interleave
File size                                : 231 MiB
Duration                                 : 23mn 35s
Overall bit rate                         : 1 367 Kbps
Writing application                      : VirtualDubMod 1.5.10.2 (build 2540/release)
Writing library                          : VirtualDubMod build 2540/release

Video
ID                                       : 0
Format                                   : MPEG-4 Visual
Format profile                           : Advanced Simple@L5
Format settings, BVOP                    : 2
Format settings, QPel                    : No
Format settings, GMC                     : No warppoints
Format settings, Matrix                  : Default (H.263)
Muxing mode                              : Packed bitstream
Codec ID                                 : XVID
Codec ID/Hint                            : XviD
Duration                                 : 23mn 35s
Bit rate                                 : 1 261 Kbps
Width                                    : 640 pixels
Height                                   : 480 pixels
Display aspect ratio                     : 4:3
Frame rate                               : 23.976 fps
Color space                              : YUV
Chroma subsampling                       : 4:2:0
Bit depth                                : 8 bits
Scan type                                : Progressive
Compression mode                         : Lossy
Bits/(Pixel*Frame)                       : 0.171
Stream size                              : 213 MiB (92%)
Writing library                          : XviD 1.1.0 (UTC 2005-11-22)

Audio
ID                                       : 1
Format                                   : MPEG Audio
Format version                           : Version 1
Format profile                           : Layer 3
Mode                                     : Joint stereo
Mode extension                           : Intensity Stereo + MS Stereo
Codec ID                                 : 55
Codec ID/Hint                            : MP3
Duration                                 : 23mn 35s
Bit rate mode                            : Constant
Bit rate                                 : 96.0 Kbps
Channel(s)                               : 2 channels
Sampling rate                            : 48.0 KHz
Compression mode                         : Lossy
Stream size                              : 16.2 MiB (7%)
Alignment                                : Split accross interleaves
Interleave, duration                     : 42 ms (1.00 video frame)
Interleave, preload duration             : 500 ms


Descarga

School Rumble/Ichi Gakki + Extra Class/Dvd rip/Jisedai/235mb / Uploaded.net.proserver

Despues de meses con el internet malo por fin puedo subir algo °A° ! ahora a revisar los demas aportes =w=
saludos~