x Hemos lanzado la versión beta de MCAnime.net (v2.0 Kronos) para TODOS los usuarios. ¡Que esperas para participar!
Ultimas Actividades del Foro
Loading...
Loading...
Dashboard
| Registrarse

[ACNF][DD]Yawara! A Fashionable Judo Girl (010/112) Sub Esp

[Cerrar]
[Cerrar]

Ahora en MCAnime.net puedes perzonalizar las publicaciones de la portada a tu gusto.
Para poder perzonalizar tus publicaciones debe estar registrado y identificado.

Rating:
  • Rating: 7.85/10
Subido por: hikaruIchijo - [ Ir al Tema ]

Yawara! A Fashionable Judo Girl
Anime television series
Directed by Hiroko Tokita
Studio Madhouse
Kitty Films
Licensed by AnimEigo
Network NTV
Original run October 16, 1989 – September 21, 1992
Episodes 124


Sinopsis:
La historia trata sobre Yawara Inokuma, una joven que aspira a una vida normal, pero que, debido a su talento innato, se ve obligado a seguir practicando judo por su abuelo autoritario, Jigorou Inokuma, con el objetivo de lograr el campeonato en Japón y el oro medalla en los Juegos Olímpicos de 1992 de Barcelona. Debido a toda la presión de su abuelo, ella tiene una actitud generalmente malo de judo, evitando tanto como pueda. Sin embargo, en el manga continúa, comienza a comprender por qué su abuelo ama tanto judo, y ella comienza a apreciarlo más.

IMAGEN:


INFO:
General
Unique ID                        : 217900477981401728365928899760375498832 (0xA3EE1B04EF9D66A68F76610F52B48850)
Complete name                    : [ACNF]Yawara - Episodio [001].mkv
Format                           : Matroska
File size                        : 216 MiB
Duration                         : 25mn 2s
Overall bit rate                 : 1 205 Kbps
Encoded date                     : UTC 2013-01-15 22:20:26
Writing application              : mkvmerge v5.0.0 ('Die Wahre Liebe') built on Sep 25 2011 20:33:49
Writing library                  : libebml v1.2.2 + libmatroska v1.3.0

Video
ID                               : 1
Format                           : MPEG-4 Visual
Format settings, BVOP            : Yes
Format settings, QPel            : No
Format settings, GMC             : No warppoints
Format settings, Matrix          : Default (H.263)
Codec ID                         : DX50
Codec ID/Hint                    : DivX 5
Duration                         : 25mn 2s
Bit rate                         : 1 053 Kbps
Width                            : 640 pixels
Height                           : 480 pixels
Display aspect ratio             : 4:3
Frame rate                       : 23.976 fps
Color space                      : YUV
Chroma subsampling               : 4:2:0
Bit depth                        : 8 bits
Scan type                        : Progressive
Compression mode                 : Lossy
Bits/(Pixel*Frame)               : 0.143
Stream size                      : 189 MiB (87%)
Writing library                  : DivX 5.0.2 (UTC 2002-05-16)

Audio
ID                               : 2
Format                           : MPEG Audio
Format version                   : Version 1
Format profile                   : Layer 3
Mode                             : Joint stereo
Mode extension                   : MS Stereo
Muxing mode                      : Header stripping
Codec ID                         : A_MPEG/L3
Codec ID/Hint                    : MP3
Duration                         : 25mn 2s
Bit rate mode                    : Constant
Bit rate                         : 128 Kbps
Channel(s)                       : 2 channels
Sampling rate                    : 48.0 KHz
Compression mode                 : Lossy
Stream size                      : 22.9 MiB (11%)

Text
ID                               : 3
Format                           : ASS
Codec ID                         : S_TEXT/ASS
Codec ID/Info                    : Advanced Sub Station Alpha
Compression mode                 : Lossless
Language                         : Spanish


Detalles de Video:
    Formato: MKV
    Video: DivX 5 640x480 23.98fp
    Audio: MPEG Audio Layer 3 48000Hz stereo
    Subtitle: SSA (SOFTSUB)


Episodios X 2SHARED - MEGA - HOTFILE

Episodio 1 V2



Episodio 1 V2
https://mega.co.nz/#!jBNSQIaC!LV7_TkjoLLH4RUx4NEalViUGmaZZBFn_kP6hKWQoCqk

Episodio 2 V1
https://mega.co.nz/#!nMdEzIyY!IaSrLTHAOySgmvcmDL5m2nn4l-RmEVgsvX0PlVOxhso

Episodio 3 V1
https://mega.co.nz/#!zYt1RQiD!Cwfc8g9COXjnlgmF_puDbRs0H6dZVTdF4sbvaLAQT0g

Episodio 4 V1
https://mega.co.nz/#!nUU03TbC!TvQTCnd-NEiQCKD_uQ-V8XZUTGku0Tk0weDUQ7Ta3V0



Episodio 5 V1 - CORREGIDO
http://www.2shared.com/video/cjvicZdW/ACNFYawara_-_Episodio_005v1.html

Episodio 6
http://www.2shared.com/video/5fgvo_gZ/ACNFYawara_-_Episodio_006.html




Episodio 7
https://mega.co.nz/#!qNMkFaBI!eXCIl6rogSwSY8_xwEm9qFgNawUJwlQL-cD1q8Gn13Y

Episodio 8
https://mega.co.nz/#!uIdHzBRS!Dl5DN5SCOux7EmPfm0kd1GKmjnaRo1wUSgBOgw6Ply0

Episodio 9
https://mega.co.nz/#!mZtnzCpA!gpPMf-Mx95b-64WptqCwe2ig1VMDu5zYSv6OAD4Yy9U

Episodio 10
https://mega.co.nz/#!Gc8DxBLb!YRFJMHmuYvuUAO3niC_D7VQt4BDEaBwNs0R2hk-oZI0

--------------------------------------------------------------------------------------------------